Към съдържанието

Снимка

Софтуер за USB PVR на Topfield TF7700HCCF

- - - - -

  • Влезте в профила си за да пишете
5 отговора на тази тема

#1
plevel

plevel

    Активен деятел;)

  • Members
  • PipPipPipPip
  • 362 Мнения:
  • Моята сателитна антена TD88
  • Моя приемник GigaBlue Quad Plus
  • Моето местонахождение Пловдив
Софт за 7700HCCI:
You can record a service into a external hard disk drive via USB port. (USB PVR Ready)

Публикувано изображение


Иначе приемника е всъщност 7700HCCI , но са резнали юсб съпорта с този сакат софт за наште кабеларки, сакън...
Виждате вашето System ID какво е от менюто на приемника.
Налива се 43022(EU), а фабрично е с 43031(Cabletel).
Преди това трябва да се ползва следната програмка, за да се смени System ID то ,в зависимост дали сте на Кейбълтел(43031),DCC(43032),MSAT(43030).
TFD ID Changer... сещате се за какво иде реч нали(0т 43022 на 43031 примерно)
http://www.sat-filez...rar&directory=
Ето го пачнат за Кейбълтел:
https://www.yousendi...1K3hEbUlLSkE9PQ

Записва си нормално ,НООООО не работи слота за картата, САМО КОМЪН ИНТЕРФЕЙСА с модул Конакс и карта вътре !!!!
Така че засега който няма модул конакс да не пробва иначе език , интерфейс всичко си е същото.

Това е заводския фирмуер за Кейбълтел
http://www.topfield....1-2008Jul02.tfd

Triax TD88 - 90E<-->8W; Strong 90 - 45Е<-->30W, DVB-T Antenna - Funke ABM 4551, AVer3D Quadro HD, GigaBlue HD Quad Plus, DM800HD OEM, Sony KDL-40W4000


#2
plevel

plevel

    Активен деятел;)

  • Members
  • PipPipPipPip
  • 362 Мнения:
  • Моята сателитна антена TD88
  • Моя приемник GigaBlue Quad Plus
  • Моето местонахождение Пловдив
Публикувано изображение

Публикувано изображение

Публикувано изображение

Разширението на файла е .rec

General
Complete name : G:\_ÂÐÙÝáâÒÕÝØ ÐäÕàØ_ - áÕàØÕÝ äØÛÜ.rec
Format : MPEG-TS
Format profile : No PAT/PMT
File size : 69.0 MiB
Duration : 5mn 0s
Overall bit rate : 1 925 Kbps

Video
ID : 105 (0x69)
Format : MPEG Video
Format version : Version 2
Format profile : Main@Main
Format settings, BVOP : Yes
Format settings, Matrix : Default
Format settings, GOP : M=3, N=12
Duration : 5mn 0s
Bit rate mode : Variable
Bit rate : 1 700 Kbps
Nominal bit rate : 10 000 Kbps
Width : 720 pixels
Height : 576 pixels
Display aspect ratio : 4:3
Frame rate : 25.000 fps
Standard : PAL
Color space : YUV
Chroma subsampling : 4:2:0
Bit depth : 8 bits
Scan type : Interlaced
Scan order : Top Field First
Compression mode : Lossy
Bits/(Pixel*Frame) : 0.164
Stream size : 61.0 MiB (88%)

Audio
ID : 106 (0x6A)
Format : MPEG Audio
Format version : Version 1
Format profile : Layer 2
Duration : 4mn 0s
Bit rate mode : Constant
Bit rate : 128 Kbps
Channel(s) : 1 channel
Sampling rate : 48.0 KHz
Compression mode : Lossy
Delay relative to video : -1s 342ms
Stream size : 3.67 MiB (5%)

Triax TD88 - 90E<-->8W; Strong 90 - 45Е<-->30W, DVB-T Antenna - Funke ABM 4551, AVer3D Quadro HD, GigaBlue HD Quad Plus, DM800HD OEM, Sony KDL-40W4000


#3
enter

enter

    Новобранец

  • Members
  • 4 Мнения:
линка не работи . Моляте сложи го някаде другаде да може да се тегли .
С RS232 кабел го почваш нали ? и с какъв лоадер ? дай цялята прицедура :)

#4
plevel

plevel

    Активен деятел;)

  • Members
  • PipPipPipPip
  • 362 Мнения:
  • Моята сателитна антена TD88
  • Моя приемник GigaBlue Quad Plus
  • Моето местонахождение Пловдив
Хардуерно разликата между 7700HCCI и 7700HCCF(Cabletel,DCC,Msat) е че първия има само 2 CI слота, без универсален каточетец, а втория въпросен приемник има 2 CI слота и универсален карточетец. Като сложим софта на първия (който си има PVR функция) на операторския на Blizoo става така че самия софтуер няма как да си засече универсалния карточетец и оттам не може да се ползва за кодирани канали със съответната операторска карта. Засича си само двата комън интерфейс слота , за които си и трябва CAM модул Conax. Значи дотука се жертва едното заради другото.
Инсталация:
Вижда се първо в менюто : Инфо/System ID кой е номера на вашия софт
Кейбълтел(43031),DCC(43032),MSAT(43030)

Дърпате си файлчето за 7700HCCI от тука

http://www.topfield....1(USBready).tfd

То е с ID 43022
за да стане с ID за вашия софт,ползвате програмката TFD ID Changer

http://www.4shared.c...ID_Changer.html

Пачвате със съответното ID като на вашия софт, слагате tfd файлчето на юсб флашка , предварително форматирана на FAT32.


Пъхате флашката в юсб то , меню/инсталация/usb upgrade намирате съответното файлче, натискате ОК и флашването започва с отброяване на цифри на екрана на монитора от 99 до 0. Като изпише END и започне да мига, махате кабела от мрежата пухате го пак и сте готови с новия софт.
Ако се обърка нещо,от този сайт си дърпате фабричния софт:

http://www.topfield.co.kr/

TF7700HCCF firmware (43030) 2008-07-11

TF7700HCCF firmware (43032) 2008-07-02

TF7700HCCF firmware (43031) 2008-07-02

Този пост е редактиран от plevel: 14 декември 2011 - 03:23

Triax TD88 - 90E<-->8W; Strong 90 - 45Е<-->30W, DVB-T Antenna - Funke ABM 4551, AVer3D Quadro HD, GigaBlue HD Quad Plus, DM800HD OEM, Sony KDL-40W4000


#5
prestan

prestan

    Новобранец

  • Members
  • 1 Мнения:
Направих всичко по описания начин. Приемника разпозна флашката и записва програми, но с накъсване на картината и звука. Освен това понякога не възпроизвежда записаните файлове и не разпознава флашката. След рестарт всичко се повтаря. Къде може да е причината за това?

#6
Yordan Kolev

Yordan Kolev

    Новобранец

  • Members
  • 1 Мнения:
мозе ли да ъе праве запис
[h=2]с TF7700HCCF варху фласка[/h]




0 потребител(и) четат тази тема

0 потребители, 0 гости, 0 анонимни